<svg xmlns="http://www.w3.org/2000/svg">
<defs>
<font
   vert-adv-y="90"
   vert-origin-y="90"
   vert-origin-x="45"
   horiz-origin-y="0"
   horiz-origin-x="0"
   horiz-adv-x="2048"
   id="EmbeddedFont_1-7">
   <font-face
   id="font-face10-5"
   descent="503"
   ascent="1535"
   font-style="normal"
   font-weight="normal"
   units-per-em="2048"
   font-family="Liberation Serif embedded" />
   <missing-glyph
   id="missing-glyph12-2"
   d="M 0,0 L 2047,0 2047,2047 0,2047 0,0 Z"
   horiz-adv-x="2048" />
   <glyph
   id="glyph14-8"
   d="M 1145,478 C 1145,399 1134,329 1111,268 1088,206 1055,154 1012,111 969,68 917,36 856,14 795,-8 725,-19 647,-19 576,-19 511,-9 452,12 393,33 343,63 301,104 259,144 227,194 204,255 181,316 170,386 170,465 L 170,1268 C 170,1273 171,1278 174,1282 177,1286 181,1289 188,1292 195,1294 203,1296 214,1298 225,1299 239,1300 256,1300 272,1300 286,1299 297,1298 308,1296 317,1294 324,1292 330,1289 334,1286 337,1282 340,1278 341,1273 341,1268 L 341,486 C 341,426 348,374 363,329 378,284 399,247 427,218 454,188 488,166 527,151 566,136 609,128 658,128 708,128 753,135 792,150 831,165 864,187 891,216 918,245 938,282 953,325 967,368 974,419 974,477 L 974,1268 C 974,1273 975,1278 978,1282 981,1286 985,1289 992,1292 999,1294 1008,1296 1019,1298 1030,1299 1043,1300 1060,1300 1076,1300 1090,1299 1101,1298 1112,1296 1120,1294 1127,1292 1133,1289 1138,1286 1141,1282 1144,1278 1145,1273 1145,1268 L 1145,478 Z"
   horiz-adv-x="980"
   unicode="U" />
   <glyph
   id="glyph16-5"
   d="M 867,363 C 867,302 856,248 834,201 811,154 780,114 741,81 701,48 654,23 601,6 547,-11 489,-19 427,-19 384,-19 344,-15 307,-8 270,-1 237,8 208,19 179,30 154,41 135,52 115,63 101,73 94,81 86,89 80,99 77,112 73,124 71,140 71,161 71,176 72,188 73,198 74,207 76,215 79,221 82,227 85,231 89,234 93,236 98,237 103,237 112,237 126,231 143,220 160,209 181,196 208,183 235,170 267,157 305,146 342,134 386,128 435,128 472,128 507,133 538,143 569,153 595,167 618,186 640,204 657,226 669,253 681,280 687,310 687,344 687,381 679,412 662,438 645,464 623,487 596,507 569,526 538,544 503,561 468,577 432,594 395,611 358,628 323,646 288,667 253,688 222,712 195,740 168,768 146,801 129,839 112,876 103,921 103,974 103,1028 113,1076 133,1119 152,1161 180,1196 215,1225 250,1254 291,1276 340,1291 388,1306 440,1313 496,1313 525,1313 554,1311 583,1306 612,1301 639,1294 665,1286 690,1277 713,1268 733,1258 753,1247 766,1239 773,1233 779,1226 783,1221 785,1218 787,1214 789,1209 790,1204 791,1198 792,1191 793,1183 794,1175 794,1165 794,1152 794,1140 794,1129 793,1120 792,1111 790,1103 788,1097 786,1090 783,1086 780,1083 776,1080 772,1078 767,1078 760,1078 748,1083 733,1092 717,1101 698,1112 675,1124 652,1135 626,1146 595,1156 564,1165 529,1170 490,1170 454,1170 423,1165 396,1156 369,1146 347,1133 330,1117 313,1101 300,1082 291,1060 282,1038 278,1015 278,990 278,954 286,923 303,897 320,871 342,848 370,828 397,808 429,790 464,773 499,756 535,740 572,723 609,706 645,687 680,667 715,646 747,622 775,595 802,567 825,534 842,497 859,459 867,414 867,363 Z"
   horiz-adv-x="821"
   unicode="S" />
   <glyph
   id="glyph18-5"
   d="M 1035,26 C 1035,21 1034,16 1032,12 1030,8 1026,5 1019,2 1012,-1 1003,-3 991,-4 979,-5 963,-6 943,-6 926,-6 912,-5 901,-4 890,-3 881,0 874,3 867,6 862,10 859,15 855,20 852,27 849,35 L 730,340 C 716,375 702,407 687,436 672,465 654,490 633,511 612,532 588,548 560,560 532,571 498,577 459,577 L 344,577 344,26 C 344,21 343,16 340,12 337,8 332,5 326,3 319,0 311,-2 300,-3 289,-5 275,-6 258,-6 241,-6 228,-5 217,-3 206,-2 197,0 190,3 183,5 179,8 176,12 173,16 172,21 172,26 L 172,1224 C 172,1250 179,1268 193,1279 206,1289 221,1294 236,1294 L 511,1294 C 544,1294 571,1293 593,1292 614,1290 634,1288 651,1286 701,1277 745,1264 784,1245 822,1226 854,1203 880,1174 906,1145 926,1113 939,1076 952,1039 958,998 958,953 958,910 952,871 941,837 929,802 912,772 890,746 868,719 842,696 811,677 780,658 746,641 708,628 729,619 749,607 766,593 783,578 800,561 815,541 830,521 844,498 857,472 870,446 884,417 897,384 L 1013,99 C 1022,75 1028,58 1031,49 1034,39 1035,31 1035,26 Z M 776,935 C 776,986 765,1029 742,1064 719,1099 681,1124 628,1139 611,1144 593,1147 572,1149 551,1151 523,1152 489,1152 L 344,1152 344,716 512,716 C 557,716 597,722 630,733 663,744 690,759 712,779 734,798 750,821 761,848 771,875 776,904 776,935 Z"
   horiz-adv-x="874"
   unicode="R" />
   <glyph
   id="glyph20-6"
   d="M 967,915 C 967,850 956,792 935,740 914,688 883,644 844,607 804,570 755,542 698,522 640,502 571,492 491,492 L 344,492 344,26 C 344,21 343,16 340,12 337,8 332,5 326,3 319,0 311,-2 300,-3 289,-5 275,-6 258,-6 241,-6 228,-5 217,-3 206,-2 197,0 190,3 183,5 179,8 176,12 173,16 172,21 172,26 L 172,1220 C 172,1247 179,1266 193,1277 207,1288 223,1294 240,1294 L 517,1294 C 545,1294 572,1293 598,1291 623,1288 654,1283 689,1276 724,1268 759,1254 796,1233 832,1212 863,1186 888,1155 913,1124 933,1089 947,1049 960,1008 967,964 967,915 Z M 786,901 C 786,954 776,998 757,1033 737,1068 713,1095 684,1112 655,1129 625,1140 594,1145 563,1150 532,1152 503,1152 L 344,1152 344,633 499,633 C 551,633 594,640 629,653 663,666 692,685 715,709 738,732 756,761 768,794 780,827 786,862 786,901 Z"
   horiz-adv-x="821"
   unicode="P" />
   <glyph
   id="glyph22-1"
   d="M 1256,662 C 1256,557 1244,463 1219,379 1194,295 1158,224 1109,165 1060,106 998,60 924,29 850,-3 764,-19 665,-19 568,-19 484,-4 413,25 342,54 283,96 237,151 190,206 156,275 133,357 110,439 99,533 99,640 99,742 111,835 136,918 161,1001 198,1072 247,1131 296,1189 358,1234 432,1266 506,1297 592,1313 691,1313 786,1313 869,1299 940,1270 1011,1241 1070,1200 1117,1145 1164,1090 1199,1022 1222,941 1245,860 1256,767 1256,662 Z M 1074,650 C 1074,723 1068,792 1055,855 1042,918 1020,972 990,1019 959,1065 919,1101 868,1127 818,1153 755,1166 681,1166 606,1166 543,1152 493,1124 442,1096 401,1059 369,1012 338,965 315,911 301,849 288,786 281,721 281,652 281,576 287,506 300,442 313,378 334,323 364,277 394,230 434,194 484,169 535,143 598,130 674,130 749,130 812,144 863,172 915,200 956,238 987,286 1018,333 1041,388 1054,451 1067,514 1074,580 1074,650 Z"
   horiz-adv-x="1192"
   unicode="O" />
   <glyph
   id="glyph24-2"
   d="M 1104,26 C 1104,21 1103,16 1100,12 1097,8 1093,5 1086,3 1079,0 1071,-2 1060,-3 1049,-5 1035,-6 1019,-6 1002,-6 988,-5 977,-3 966,-2 958,0 951,3 944,5 940,8 937,12 934,16 933,21 933,26 L 933,600 344,600 344,26 C 344,21 343,16 340,12 337,8 333,5 326,3 319,0 311,-2 300,-3 289,-5 275,-6 258,-6 242,-6 228,-5 217,-3 206,-2 197,0 190,3 183,5 179,8 176,12 173,16 172,21 172,26 L 172,1268 C 172,1273 173,1278 176,1282 179,1286 183,1289 190,1292 197,1294 206,1296 217,1298 228,1299 242,1300 258,1300 275,1300 289,1299 300,1298 311,1296 319,1294 326,1292 333,1289 337,1286 340,1282 343,1278 344,1273 344,1268 L 344,750 933,750 933,1268 C 933,1273 934,1278 937,1282 940,1286 944,1289 951,1292 958,1294 966,1296 977,1298 988,1299 1002,1300 1019,1300 1035,1300 1049,1299 1060,1298 1071,1296 1079,1294 1086,1292 1093,1289 1097,1286 1100,1282 1103,1278 1104,1273 1104,1268 L 1104,26 Z"
   horiz-adv-x="953"
   unicode="H" />
   <glyph
   id="glyph26-3"
   d="M 1167,666 C 1167,554 1153,456 1124,373 1095,289 1054,220 999,165 944,110 876,68 796,41 716,14 621,0 510,0 L 236,0 C 221,0 206,5 193,16 179,26 172,44 172,70 L 172,1224 C 172,1250 179,1268 193,1279 206,1289 221,1294 236,1294 L 529,1294 C 641,1294 736,1280 813,1251 890,1222 955,1180 1008,1126 1060,1071 1100,1005 1127,928 1154,851 1167,763 1167,666 Z M 986,659 C 986,729 977,794 960,855 943,915 916,967 879,1011 842,1055 795,1089 738,1114 681,1139 608,1151 519,1151 L 344,1151 344,144 521,144 C 604,144 673,154 730,175 787,196 834,227 872,270 910,313 939,366 958,431 977,495 986,571 986,659 Z"
   horiz-adv-x="1006"
   unicode="D" />
   <glyph
   id="glyph28-3"
   d="M 1141,61 C 1146,46 1149,35 1150,26 1150,17 1147,10 1142,5 1137,0 1128,-3 1116,-4 1103,-5 1087,-6 1066,-6 1045,-6 1029,-5 1017,-4 1004,-3 995,-2 989,1 982,3 978,6 975,10 972,14 969,19 966,25 L 855,340 317,340 211,29 C 209,23 206,18 203,14 200,9 195,6 189,3 182,0 173,-3 162,-4 150,-5 135,-6 116,-6 97,-6 81,-5 69,-3 56,-2 48,1 43,6 38,11 35,18 36,27 36,36 39,47 44,62 L 478,1264 C 481,1271 484,1277 489,1282 493,1287 499,1290 508,1293 516,1296 527,1298 540,1299 553,1300 569,1300 589,1300 610,1300 628,1300 642,1299 656,1298 667,1296 676,1293 685,1290 691,1287 696,1282 701,1277 704,1270 707,1263 L 1141,61 Z M 584,1122 L 583,1122 360,477 810,477 584,1122 Z"
   horiz-adv-x="1139"
   unicode="A" />
   <glyph
   id="glyph30-4"
   d="M 371,143 C 371,122 370,103 368,86 366,69 363,52 358,37 353,22 347,7 340,-8 332,-23 322,-39 311,-56 L 174,-262 C 171,-267 167,-271 163,-274 158,-277 153,-280 147,-283 140,-286 133,-287 125,-288 116,-289 106,-290 93,-290 82,-290 72,-289 65,-288 57,-287 51,-286 48,-283 45,-281 43,-278 43,-274 42,-270 43,-265 46,-260 L 179,15 179,143 C 179,161 181,175 185,186 188,197 194,205 202,210 210,215 220,219 232,221 244,223 259,224 276,224 293,224 307,223 319,221 331,219 341,215 349,210 356,205 362,197 366,186 369,175 371,161 371,143 Z"
   horiz-adv-x="345"
   unicode="," />
   <glyph
   id="glyph32"
   horiz-adv-x="450"
   unicode=" " />
  </font><font
   vert-adv-y="90"
   vert-origin-y="90"
   vert-origin-x="45"
   horiz-origin-y="0"
   horiz-origin-x="0"
   horiz-adv-x="2048"
   id="EmbeddedFont_2-7">
   <font-face
   id="font-face37"
   descent="503"
   ascent="1535"
   font-style="italic"
   font-weight="normal"
   units-per-em="2048"
   font-family="Liberation Serif embedded" />
   <missing-glyph
   id="missing-glyph39"
   d="M 0,0 L 2047,0 2047,2047 0,2047 0,0 Z"
   horiz-adv-x="2048" />
   <glyph
   id="glyph41-2"
   d="M 741,-332 C 740,-337 737,-342 734,-346 731,-350 726,-353 719,-356 712,-359 704,-361 693,-362 682,-363 668,-364 651,-364 636,-364 623,-363 613,-362 602,-361 594,-359 589,-356 583,-353 579,-350 577,-346 575,-342 574,-337 575,-332 L 641,-7 C 644,10 648,28 653,46 658,64 663,82 668,100 673,117 677,134 682,150 687,166 691,180 696,192 685,169 668,146 645,121 622,96 595,73 564,52 533,31 500,14 463,1 426,-12 389,-19 351,-19 304,-19 263,-11 229,4 194,19 166,41 145,70 123,99 107,133 97,173 86,212 81,256 81,305 81,342 85,384 92,432 99,479 110,528 126,577 141,626 161,674 186,721 211,768 241,810 276,847 311,884 352,913 399,936 446,959 499,970 559,970 618,970 669,958 712,934 754,910 792,877 825,835 L 844,926 C 847,937 854,945 867,950 880,955 899,957 926,957 939,957 951,956 960,955 969,954 976,952 981,949 986,946 990,943 991,939 992,935 993,931 992,926 L 741,-332 Z M 781,690 C 750,736 716,771 680,794 643,817 602,828 557,828 520,828 486,819 457,802 427,784 401,760 379,731 356,702 337,669 321,632 305,595 292,558 282,520 272,482 265,445 261,410 256,375 254,344 254,318 254,252 266,203 290,171 313,138 348,122 393,122 430,122 467,132 504,153 541,173 575,201 607,237 639,273 667,316 692,365 717,414 735,467 747,525 L 781,690 Z"
   horiz-adv-x="927"
   unicode="q" />
   <glyph
   id="glyph43-9"
   d="M 1383,25 C 1382,20 1380,15 1377,12 1374,8 1369,5 1362,2 1355,-1 1346,-3 1335,-4 1324,-5 1310,-6 1294,-6 1278,-6 1265,-5 1255,-4 1244,-3 1236,-1 1231,2 1225,5 1221,8 1219,12 1217,15 1217,20 1218,25 L 1329,581 C 1332,600 1335,619 1338,636 1340,653 1341,671 1341,688 1341,731 1333,765 1317,790 1300,815 1272,828 1231,828 1198,828 1163,818 1128,798 1092,777 1058,749 1026,714 994,678 966,636 941,587 916,538 898,484 887,427 L 807,25 C 806,20 803,15 800,12 797,8 792,5 785,2 778,-1 769,-3 758,-4 747,-5 733,-6 717,-6 701,-6 688,-5 678,-4 667,-3 659,-1 654,2 649,5 645,8 643,12 641,15 640,20 641,25 L 752,581 C 757,601 760,621 762,640 763,659 764,677 764,694 764,735 756,767 739,792 722,816 694,828 654,828 620,828 585,818 550,798 515,777 481,749 449,714 417,678 389,636 364,587 339,538 321,484 310,427 L 230,25 C 229,20 226,15 223,12 220,8 215,5 208,2 201,-1 193,-3 182,-4 171,-5 157,-6 141,-6 124,-6 111,-5 101,-4 90,-3 82,-1 77,2 71,5 67,8 66,12 64,15 64,20 65,25 L 246,926 C 247,931 249,935 252,939 255,943 259,946 266,949 272,952 280,954 290,955 299,956 311,956 324,956 338,956 350,956 359,955 368,954 375,952 380,949 385,946 388,943 389,939 390,935 391,931 390,926 L 356,754 C 366,777 383,801 406,826 429,851 455,875 486,896 517,917 550,935 587,949 623,963 660,970 698,970 738,970 772,965 801,954 830,943 853,928 872,909 890,890 903,867 912,841 921,814 926,785 928,754 941,777 960,802 983,827 1006,852 1033,876 1064,897 1095,918 1128,935 1164,949 1200,963 1237,970 1274,970 1319,970 1356,964 1386,951 1416,938 1440,921 1459,899 1478,877 1491,851 1499,822 1507,793 1511,761 1511,726 1511,703 1510,680 1507,657 1504,634 1501,611 1496,587 L 1383,25 Z"
   horiz-adv-x="1456"
   unicode="m" />
   <glyph
   id="glyph45-9"
   d="M 1298,860 C 1298,809 1293,751 1284,688 1275,625 1259,560 1237,495 1215,430 1186,366 1150,305 1113,243 1068,188 1015,141 962,93 898,54 825,25 752,-4 668,-19 573,-19 497,-19 430,-9 373,10 316,29 268,57 230,95 191,132 162,179 143,234 124,289 114,353 114,426 114,483 119,545 129,611 139,677 156,743 179,809 202,874 232,937 269,998 306,1059 351,1113 405,1160 458,1207 521,1244 593,1272 665,1299 748,1313 841,1313 916,1313 983,1303 1040,1284 1097,1264 1144,1235 1183,1197 1221,1158 1250,1111 1269,1055 1288,998 1298,933 1298,860 Z M 1114,848 C 1114,895 1109,938 1098,977 1087,1016 1070,1049 1047,1077 1024,1105 993,1127 954,1143 915,1158 869,1166 814,1166 745,1166 684,1153 632,1128 579,1102 534,1068 496,1027 457,986 426,939 401,887 376,834 356,781 341,728 326,675 315,623 309,573 302,523 299,480 299,443 299,396 304,353 315,315 325,276 342,243 366,216 390,189 421,168 460,153 498,138 545,130 600,130 669,130 729,143 781,168 833,193 878,225 916,266 954,307 986,353 1011,405 1036,456 1057,509 1072,562 1087,615 1098,666 1105,716 1111,766 1114,810 1114,848 Z"
   horiz-adv-x="1191"
   unicode="O" />
   <glyph
   id="glyph47-1"
   d="M 1006,1260 C 1006,1256 1006,1251 1006,1244 1005,1237 1004,1230 1003,1222 1001,1213 999,1205 996,1196 993,1187 990,1179 986,1172 982,1165 977,1159 972,1155 967,1150 961,1148 954,1148 L 481,1148 393,708 841,708 C 849,708 855,705 859,700 862,694 864,686 864,676 864,671 864,665 863,658 862,651 861,643 860,636 858,628 856,620 853,611 850,602 847,595 843,588 839,581 834,576 829,572 824,567 818,565 811,565 L 364,565 256,26 C 255,21 253,16 250,12 246,8 241,5 234,3 227,0 217,-2 206,-3 195,-5 181,-6 164,-6 147,-6 134,-5 123,-3 112,-2 103,0 97,3 91,5 87,8 85,12 83,16 83,21 84,26 L 324,1224 C 329,1250 339,1268 355,1279 371,1289 387,1294 402,1294 L 983,1294 C 992,1294 999,1291 1002,1285 1005,1278 1006,1270 1006,1260 Z"
   horiz-adv-x="927"
   unicode="F" />
   <glyph
   id="glyph49-9"
   d="M 1145,1162 C 1145,1148 1143,1131 1138,1110 1133,1089 1127,1073 1120,1061 1112,1049 1104,1043 1095,1043 1086,1043 1075,1049 1062,1062 1049,1074 1032,1087 1011,1102 990,1116 962,1129 929,1142 895,1154 853,1160 802,1160 746,1160 695,1150 649,1129 603,1108 562,1079 525,1044 488,1008 455,967 427,920 399,873 376,825 358,774 339,723 325,671 316,619 307,567 302,518 302,471 302,418 309,370 322,329 335,287 355,252 380,223 405,194 436,173 473,158 510,143 551,136 598,136 650,136 695,142 733,154 770,165 803,178 830,193 857,207 879,220 897,232 915,243 930,249 941,249 948,249 954,246 957,241 960,236 962,228 962,217 962,214 962,209 961,203 960,196 958,189 957,182 956,175 954,167 953,158 951,149 949,141 946,134 943,126 941,119 938,113 935,106 930,100 923,93 916,86 901,77 879,64 856,51 829,38 797,27 764,15 728,5 688,-3 647,-12 604,-16 559,-16 491,-16 430,-6 375,15 320,35 274,65 236,105 197,144 168,194 147,253 126,312 115,379 115,456 115,519 122,585 135,652 148,719 168,784 194,847 220,910 253,970 292,1026 331,1082 376,1131 428,1174 479,1216 537,1249 602,1274 667,1298 738,1310 815,1310 864,1310 909,1305 952,1294 994,1283 1030,1269 1060,1252 1090,1235 1112,1221 1125,1208 1138,1195 1145,1179 1145,1162 Z"
   horiz-adv-x="1059"
   unicode="C" />
   <glyph
   id="glyph51"
   d="M 1060,61 C 1062,46 1063,35 1062,26 1061,17 1057,10 1051,5 1044,0 1034,-3 1021,-4 1008,-5 990,-6 967,-6 952,-6 940,-5 929,-4 918,-3 910,-2 905,1 899,3 895,6 892,10 889,14 888,19 887,25 L 839,340 300,340 131,28 C 128,21 124,16 120,12 115,7 109,4 102,1 94,-2 84,-3 72,-4 59,-5 44,-6 26,-6 6,-6 -10,-5 -22,-3 -34,-2 -42,1 -47,6 -52,11 -53,18 -51,27 -49,36 -44,47 -37,62 L 637,1264 C 642,1271 647,1277 652,1282 657,1287 664,1290 673,1293 682,1296 693,1298 706,1299 719,1300 736,1300 755,1300 777,1300 795,1300 809,1299 822,1298 833,1296 842,1293 850,1290 856,1287 859,1282 862,1277 865,1270 866,1263 L 1060,61 Z M 723,1122 L 722,1122 372,477 820,477 723,1122 Z"
   horiz-adv-x="1112"
   unicode="A" />
  </font><font
   vert-adv-y="90"
   vert-origin-y="90"
   vert-origin-x="45"
   horiz-origin-y="0"
   horiz-origin-x="0"
   horiz-adv-x="2048"
   id="EmbeddedFont_3-5">
   <font-face
   id="font-face56"
   descent="450"
   ascent="1402"
   font-style="normal"
   font-weight="normal"
   units-per-em="2048"
   font-family="OpenSymbol embedded" />
   <missing-glyph
   id="missing-glyph58"
   d="M 0,0 L 2047,0 2047,2047 0,2047 0,0 Z"
   horiz-adv-x="2048" />
   <glyph
   id="glyph60-0"
   d="M 221,293 L 221,420 1405,420 1405,293 221,293 Z M 221,791 L 221,920 1405,920 1405,791 221,791 Z"
   horiz-adv-x="1191"
   unicode="=" />
  </font><g
   id="g65-0"
   ooo:id-list="id3"
   ooo:slide="id1" /><g
   transform="matrix(4.8828125e-4,0,0,-4.8828125e-4,0,0)"
   id="bullet-char-template-57356-6">
   <path
   inkscape:connector-curvature="0"
   id="path69-2"
   d="M 580,1141 1163,571 580,0 -4,571 Z" />
  </g><g
   transform="matrix(4.8828125e-4,0,0,-4.8828125e-4,0,0)"
   id="bullet-char-template-57354-8">
   <path
   inkscape:connector-curvature="0"
   id="path72-2"
   d="M 8,1128 H 1137 V 0 H 8 Z" />
  </g><g
   transform="matrix(4.8828125e-4,0,0,-4.8828125e-4,0,0)"
   id="bullet-char-template-10146-0">
   <path
   inkscape:connector-curvature="0"
   id="path75-8"
   d="M 174,0 602,739 174,1481 1456,739 Z M 1358,739 309,1346 659,739 Z" />
  </g><g
   transform="matrix(4.8828125e-4,0,0,-4.8828125e-4,0,0)"
   id="bullet-char-template-10132-6">
   <path
   inkscape:connector-curvature="0"
   id="path78-5"
   d="M 2015,739 1276,0 H 717 l 543,543 H 174 v 393 h 1086 l -543,545 h 557 z" />
  </g><g
   transform="matrix(4.8828125e-4,0,0,-4.8828125e-4,0,0)"
   id="bullet-char-template-10007-0">
   <path
   inkscape:connector-curvature="0"
   id="path81-3"
   d="m 0,-2 c -7,16 -16,29 -25,39 l 381,530 c -94,256 -141,385 -141,387 0,25 13,38 40,38 9,0 21,-2 34,-5 21,4 42,12 65,25 l 27,-13 111,-251 280,301 64,-25 24,25 c 21,-10 41,-24 62,-43 C 886,937 835,863 770,784 769,783 710,716 594,584 L 774,223 c 0,-27 -21,-55 -63,-84 l 16,-20 C 717,90 699,76 672,76 641,76 570,178 457,381 L 164,-76 c -22,-34 -53,-51 -92,-51 -42,0 -63,17 -64,51 -7,9 -10,24 -10,44 0,9 1,19 2,30 z" />
  </g><g
   transform="matrix(4.8828125e-4,0,0,-4.8828125e-4,0,0)"
   id="bullet-char-template-10004-6">
   <path
   inkscape:connector-curvature="0"
   id="path84-9"
   d="M 285,-33 C 182,-33 111,30 74,156 52,228 41,333 41,471 c 0,78 14,145 41,201 34,71 87,106 158,106 53,0 88,-31 106,-94 l 23,-176 c 8,-64 28,-97 59,-98 l 735,706 c 11,11 33,17 66,17 42,0 63,-15 63,-46 V 965 c 0,-36 -10,-64 -30,-84 L 442,47 C 390,-6 338,-33 285,-33 Z" />
  </g><g
   transform="matrix(4.8828125e-4,0,0,-4.8828125e-4,0,0)"
   id="bullet-char-template-9679-0">
   <path
   inkscape:connector-curvature="0"
   id="path87-1"
   d="M 813,0 C 632,0 489,54 383,161 276,268 223,411 223,592 c 0,181 53,324 160,431 106,107 249,161 430,161 179,0 323,-54 432,-161 108,-107 162,-251 162,-431 0,-180 -54,-324 -162,-431 C 1136,54 992,0 813,0 Z" />
  </g><g
   transform="matrix(4.8828125e-4,0,0,-4.8828125e-4,0,0)"
   id="bullet-char-template-8226-4">
   <path
   inkscape:connector-curvature="0"
   id="path90-6"
   d="m 346,457 c -73,0 -137,26 -191,78 -54,51 -81,114 -81,188 0,73 27,136 81,188 54,52 118,78 191,78 73,0 134,-26 185,-79 51,-51 77,-114 77,-187 0,-75 -25,-137 -76,-188 -50,-52 -112,-78 -186,-78 z" />
  </g><g
   transform="matrix(4.8828125e-4,0,0,-4.8828125e-4,0,0)"
   id="bullet-char-template-8211-1">
   <path
   inkscape:connector-curvature="0"
   id="path93-2"
   d="M -4,459 H 1135 V 606 H -4 Z" />
  </g><g
   transform="matrix(4.8828125e-4,0,0,-4.8828125e-4,0,0)"
   id="bullet-char-template-61548-4">
   <path
   inkscape:connector-curvature="0"
   id="path96-7"
   d="m 173,740 c 0,163 58,303 173,419 116,115 255,173 419,173 163,0 302,-58 418,-173 116,-116 174,-256 174,-419 0,-163 -58,-303 -174,-418 C 1067,206 928,148 765,148 601,148 462,206 346,322 231,437 173,577 173,740 Z" />
  </g><clipPath
   id="clip_path_1-3"
   clipPathUnits="userSpaceOnUse">
          <path
   d="m 9472,14340 h 3413 v 979 H 9472 Z"
   id="path108-2"
   inkscape:connector-curvature="0" />
         </clipPath>
  
 
  
 
   
  <clipPath
   clipPathUnits="userSpaceOnUse"
   id="presentation_clip_path-9">
   <rect
   id="rect2-9"
   height="29700"
   width="21000"
   y="0"
   x="0" />
  </clipPath><clipPath
   clipPathUnits="userSpaceOnUse"
   id="presentation_clip_path_shrink-7">
   <rect
   id="rect5-3"
   height="29641"
   width="20958"
   y="29"
   x="21" />
  </clipPath><font
   vert-adv-y="90"
   vert-origin-y="90"
   vert-origin-x="45"
   horiz-origin-y="0"
   horiz-origin-x="0"
   horiz-adv-x="2048"
   id="EmbeddedFont_1-8">
   <font-face
   id="font-face10-1"
   descent="503"
   ascent="1535"
   font-style="normal"
   font-weight="normal"
   units-per-em="2048"
   font-family="Liberation Serif embedded" />
   <missing-glyph
   id="missing-glyph12-9"
   d="M 0,0 L 2047,0 2047,2047 0,2047 0,0 Z"
   horiz-adv-x="2048" />
   <glyph
   id="glyph14-7"
   d="M 1145,478 C 1145,399 1134,329 1111,268 1088,206 1055,154 1012,111 969,68 917,36 856,14 795,-8 725,-19 647,-19 576,-19 511,-9 452,12 393,33 343,63 301,104 259,144 227,194 204,255 181,316 170,386 170,465 L 170,1268 C 170,1273 171,1278 174,1282 177,1286 181,1289 188,1292 195,1294 203,1296 214,1298 225,1299 239,1300 256,1300 272,1300 286,1299 297,1298 308,1296 317,1294 324,1292 330,1289 334,1286 337,1282 340,1278 341,1273 341,1268 L 341,486 C 341,426 348,374 363,329 378,284 399,247 427,218 454,188 488,166 527,151 566,136 609,128 658,128 708,128 753,135 792,150 831,165 864,187 891,216 918,245 938,282 953,325 967,368 974,419 974,477 L 974,1268 C 974,1273 975,1278 978,1282 981,1286 985,1289 992,1292 999,1294 1008,1296 1019,1298 1030,1299 1043,1300 1060,1300 1076,1300 1090,1299 1101,1298 1112,1296 1120,1294 1127,1292 1133,1289 1138,1286 1141,1282 1144,1278 1145,1273 1145,1268 L 1145,478 Z"
   horiz-adv-x="980"
   unicode="U" />
   <glyph
   id="glyph16-0"
   d="M 867,363 C 867,302 856,248 834,201 811,154 780,114 741,81 701,48 654,23 601,6 547,-11 489,-19 427,-19 384,-19 344,-15 307,-8 270,-1 237,8 208,19 179,30 154,41 135,52 115,63 101,73 94,81 86,89 80,99 77,112 73,124 71,140 71,161 71,176 72,188 73,198 74,207 76,215 79,221 82,227 85,231 89,234 93,236 98,237 103,237 112,237 126,231 143,220 160,209 181,196 208,183 235,170 267,157 305,146 342,134 386,128 435,128 472,128 507,133 538,143 569,153 595,167 618,186 640,204 657,226 669,253 681,280 687,310 687,344 687,381 679,412 662,438 645,464 623,487 596,507 569,526 538,544 503,561 468,577 432,594 395,611 358,628 323,646 288,667 253,688 222,712 195,740 168,768 146,801 129,839 112,876 103,921 103,974 103,1028 113,1076 133,1119 152,1161 180,1196 215,1225 250,1254 291,1276 340,1291 388,1306 440,1313 496,1313 525,1313 554,1311 583,1306 612,1301 639,1294 665,1286 690,1277 713,1268 733,1258 753,1247 766,1239 773,1233 779,1226 783,1221 785,1218 787,1214 789,1209 790,1204 791,1198 792,1191 793,1183 794,1175 794,1165 794,1152 794,1140 794,1129 793,1120 792,1111 790,1103 788,1097 786,1090 783,1086 780,1083 776,1080 772,1078 767,1078 760,1078 748,1083 733,1092 717,1101 698,1112 675,1124 652,1135 626,1146 595,1156 564,1165 529,1170 490,1170 454,1170 423,1165 396,1156 369,1146 347,1133 330,1117 313,1101 300,1082 291,1060 282,1038 278,1015 278,990 278,954 286,923 303,897 320,871 342,848 370,828 397,808 429,790 464,773 499,756 535,740 572,723 609,706 645,687 680,667 715,646 747,622 775,595 802,567 825,534 842,497 859,459 867,414 867,363 Z"
   horiz-adv-x="821"
   unicode="S" />
   <glyph
   id="glyph18-59"
   d="M 1035,26 C 1035,21 1034,16 1032,12 1030,8 1026,5 1019,2 1012,-1 1003,-3 991,-4 979,-5 963,-6 943,-6 926,-6 912,-5 901,-4 890,-3 881,0 874,3 867,6 862,10 859,15 855,20 852,27 849,35 L 730,340 C 716,375 702,407 687,436 672,465 654,490 633,511 612,532 588,548 560,560 532,571 498,577 459,577 L 344,577 344,26 C 344,21 343,16 340,12 337,8 332,5 326,3 319,0 311,-2 300,-3 289,-5 275,-6 258,-6 241,-6 228,-5 217,-3 206,-2 197,0 190,3 183,5 179,8 176,12 173,16 172,21 172,26 L 172,1224 C 172,1250 179,1268 193,1279 206,1289 221,1294 236,1294 L 511,1294 C 544,1294 571,1293 593,1292 614,1290 634,1288 651,1286 701,1277 745,1264 784,1245 822,1226 854,1203 880,1174 906,1145 926,1113 939,1076 952,1039 958,998 958,953 958,910 952,871 941,837 929,802 912,772 890,746 868,719 842,696 811,677 780,658 746,641 708,628 729,619 749,607 766,593 783,578 800,561 815,541 830,521 844,498 857,472 870,446 884,417 897,384 L 1013,99 C 1022,75 1028,58 1031,49 1034,39 1035,31 1035,26 Z M 776,935 C 776,986 765,1029 742,1064 719,1099 681,1124 628,1139 611,1144 593,1147 572,1149 551,1151 523,1152 489,1152 L 344,1152 344,716 512,716 C 557,716 597,722 630,733 663,744 690,759 712,779 734,798 750,821 761,848 771,875 776,904 776,935 Z"
   horiz-adv-x="874"
   unicode="R" />
   <glyph
   id="glyph20-4"
   d="M 967,915 C 967,850 956,792 935,740 914,688 883,644 844,607 804,570 755,542 698,522 640,502 571,492 491,492 L 344,492 344,26 C 344,21 343,16 340,12 337,8 332,5 326,3 319,0 311,-2 300,-3 289,-5 275,-6 258,-6 241,-6 228,-5 217,-3 206,-2 197,0 190,3 183,5 179,8 176,12 173,16 172,21 172,26 L 172,1220 C 172,1247 179,1266 193,1277 207,1288 223,1294 240,1294 L 517,1294 C 545,1294 572,1293 598,1291 623,1288 654,1283 689,1276 724,1268 759,1254 796,1233 832,1212 863,1186 888,1155 913,1124 933,1089 947,1049 960,1008 967,964 967,915 Z M 786,901 C 786,954 776,998 757,1033 737,1068 713,1095 684,1112 655,1129 625,1140 594,1145 563,1150 532,1152 503,1152 L 344,1152 344,633 499,633 C 551,633 594,640 629,653 663,666 692,685 715,709 738,732 756,761 768,794 780,827 786,862 786,901 Z"
   horiz-adv-x="821"
   unicode="P" />
   <glyph
   id="glyph22-2"
   d="M 1256,662 C 1256,557 1244,463 1219,379 1194,295 1158,224 1109,165 1060,106 998,60 924,29 850,-3 764,-19 665,-19 568,-19 484,-4 413,25 342,54 283,96 237,151 190,206 156,275 133,357 110,439 99,533 99,640 99,742 111,835 136,918 161,1001 198,1072 247,1131 296,1189 358,1234 432,1266 506,1297 592,1313 691,1313 786,1313 869,1299 940,1270 1011,1241 1070,1200 1117,1145 1164,1090 1199,1022 1222,941 1245,860 1256,767 1256,662 Z M 1074,650 C 1074,723 1068,792 1055,855 1042,918 1020,972 990,1019 959,1065 919,1101 868,1127 818,1153 755,1166 681,1166 606,1166 543,1152 493,1124 442,1096 401,1059 369,1012 338,965 315,911 301,849 288,786 281,721 281,652 281,576 287,506 300,442 313,378 334,323 364,277 394,230 434,194 484,169 535,143 598,130 674,130 749,130 812,144 863,172 915,200 956,238 987,286 1018,333 1041,388 1054,451 1067,514 1074,580 1074,650 Z"
   horiz-adv-x="1192"
   unicode="O" />
   <glyph
   id="glyph24-1"
   d="M 1104,26 C 1104,21 1103,16 1100,12 1097,8 1093,5 1086,3 1079,0 1071,-2 1060,-3 1049,-5 1035,-6 1019,-6 1002,-6 988,-5 977,-3 966,-2 958,0 951,3 944,5 940,8 937,12 934,16 933,21 933,26 L 933,600 344,600 344,26 C 344,21 343,16 340,12 337,8 333,5 326,3 319,0 311,-2 300,-3 289,-5 275,-6 258,-6 242,-6 228,-5 217,-3 206,-2 197,0 190,3 183,5 179,8 176,12 173,16 172,21 172,26 L 172,1268 C 172,1273 173,1278 176,1282 179,1286 183,1289 190,1292 197,1294 206,1296 217,1298 228,1299 242,1300 258,1300 275,1300 289,1299 300,1298 311,1296 319,1294 326,1292 333,1289 337,1286 340,1282 343,1278 344,1273 344,1268 L 344,750 933,750 933,1268 C 933,1273 934,1278 937,1282 940,1286 944,1289 951,1292 958,1294 966,1296 977,1298 988,1299 1002,1300 1019,1300 1035,1300 1049,1299 1060,1298 1071,1296 1079,1294 1086,1292 1093,1289 1097,1286 1100,1282 1103,1278 1104,1273 1104,1268 L 1104,26 Z"
   horiz-adv-x="953"
   unicode="H" />
   <glyph
   id="glyph26-9"
   d="M 1167,666 C 1167,554 1153,456 1124,373 1095,289 1054,220 999,165 944,110 876,68 796,41 716,14 621,0 510,0 L 236,0 C 221,0 206,5 193,16 179,26 172,44 172,70 L 172,1224 C 172,1250 179,1268 193,1279 206,1289 221,1294 236,1294 L 529,1294 C 641,1294 736,1280 813,1251 890,1222 955,1180 1008,1126 1060,1071 1100,1005 1127,928 1154,851 1167,763 1167,666 Z M 986,659 C 986,729 977,794 960,855 943,915 916,967 879,1011 842,1055 795,1089 738,1114 681,1139 608,1151 519,1151 L 344,1151 344,144 521,144 C 604,144 673,154 730,175 787,196 834,227 872,270 910,313 939,366 958,431 977,495 986,571 986,659 Z"
   horiz-adv-x="1006"
   unicode="D" />
   <glyph
   id="glyph28-8"
   d="M 1141,61 C 1146,46 1149,35 1150,26 1150,17 1147,10 1142,5 1137,0 1128,-3 1116,-4 1103,-5 1087,-6 1066,-6 1045,-6 1029,-5 1017,-4 1004,-3 995,-2 989,1 982,3 978,6 975,10 972,14 969,19 966,25 L 855,340 317,340 211,29 C 209,23 206,18 203,14 200,9 195,6 189,3 182,0 173,-3 162,-4 150,-5 135,-6 116,-6 97,-6 81,-5 69,-3 56,-2 48,1 43,6 38,11 35,18 36,27 36,36 39,47 44,62 L 478,1264 C 481,1271 484,1277 489,1282 493,1287 499,1290 508,1293 516,1296 527,1298 540,1299 553,1300 569,1300 589,1300 610,1300 628,1300 642,1299 656,1298 667,1296 676,1293 685,1290 691,1287 696,1282 701,1277 704,1270 707,1263 L 1141,61 Z M 584,1122 L 583,1122 360,477 810,477 584,1122 Z"
   horiz-adv-x="1139"
   unicode="A" />
   <glyph
   id="glyph30-7"
   d="M 371,143 C 371,122 370,103 368,86 366,69 363,52 358,37 353,22 347,7 340,-8 332,-23 322,-39 311,-56 L 174,-262 C 171,-267 167,-271 163,-274 158,-277 153,-280 147,-283 140,-286 133,-287 125,-288 116,-289 106,-290 93,-290 82,-290 72,-289 65,-288 57,-287 51,-286 48,-283 45,-281 43,-278 43,-274 42,-270 43,-265 46,-260 L 179,15 179,143 C 179,161 181,175 185,186 188,197 194,205 202,210 210,215 220,219 232,221 244,223 259,224 276,224 293,224 307,223 319,221 331,219 341,215 349,210 356,205 362,197 366,186 369,175 371,161 371,143 Z"
   horiz-adv-x="345"
   unicode="," />
   <glyph
   id="glyph32-7"
   horiz-adv-x="450"
   unicode=" " />
  </font><font
   vert-adv-y="90"
   vert-origin-y="90"
   vert-origin-x="45"
   horiz-origin-y="0"
   horiz-origin-x="0"
   horiz-adv-x="2048"
   id="EmbeddedFont_2-8">
   <font-face
   id="font-face37-6"
   descent="503"
   ascent="1535"
   font-style="italic"
   font-weight="normal"
   units-per-em="2048"
   font-family="Liberation Serif embedded" />
   <missing-glyph
   id="missing-glyph39-0"
   d="M 0,0 L 2047,0 2047,2047 0,2047 0,0 Z"
   horiz-adv-x="2048" />
   <glyph
   id="glyph41-0"
   d="M 741,-332 C 740,-337 737,-342 734,-346 731,-350 726,-353 719,-356 712,-359 704,-361 693,-362 682,-363 668,-364 651,-364 636,-364 623,-363 613,-362 602,-361 594,-359 589,-356 583,-353 579,-350 577,-346 575,-342 574,-337 575,-332 L 641,-7 C 644,10 648,28 653,46 658,64 663,82 668,100 673,117 677,134 682,150 687,166 691,180 696,192 685,169 668,146 645,121 622,96 595,73 564,52 533,31 500,14 463,1 426,-12 389,-19 351,-19 304,-19 263,-11 229,4 194,19 166,41 145,70 123,99 107,133 97,173 86,212 81,256 81,305 81,342 85,384 92,432 99,479 110,528 126,577 141,626 161,674 186,721 211,768 241,810 276,847 311,884 352,913 399,936 446,959 499,970 559,970 618,970 669,958 712,934 754,910 792,877 825,835 L 844,926 C 847,937 854,945 867,950 880,955 899,957 926,957 939,957 951,956 960,955 969,954 976,952 981,949 986,946 990,943 991,939 992,935 993,931 992,926 L 741,-332 Z M 781,690 C 750,736 716,771 680,794 643,817 602,828 557,828 520,828 486,819 457,802 427,784 401,760 379,731 356,702 337,669 321,632 305,595 292,558 282,520 272,482 265,445 261,410 256,375 254,344 254,318 254,252 266,203 290,171 313,138 348,122 393,122 430,122 467,132 504,153 541,173 575,201 607,237 639,273 667,316 692,365 717,414 735,467 747,525 L 781,690 Z"
   horiz-adv-x="927"
   unicode="q" />
   <glyph
   id="glyph43-2"
   d="M 1383,25 C 1382,20 1380,15 1377,12 1374,8 1369,5 1362,2 1355,-1 1346,-3 1335,-4 1324,-5 1310,-6 1294,-6 1278,-6 1265,-5 1255,-4 1244,-3 1236,-1 1231,2 1225,5 1221,8 1219,12 1217,15 1217,20 1218,25 L 1329,581 C 1332,600 1335,619 1338,636 1340,653 1341,671 1341,688 1341,731 1333,765 1317,790 1300,815 1272,828 1231,828 1198,828 1163,818 1128,798 1092,777 1058,749 1026,714 994,678 966,636 941,587 916,538 898,484 887,427 L 807,25 C 806,20 803,15 800,12 797,8 792,5 785,2 778,-1 769,-3 758,-4 747,-5 733,-6 717,-6 701,-6 688,-5 678,-4 667,-3 659,-1 654,2 649,5 645,8 643,12 641,15 640,20 641,25 L 752,581 C 757,601 760,621 762,640 763,659 764,677 764,694 764,735 756,767 739,792 722,816 694,828 654,828 620,828 585,818 550,798 515,777 481,749 449,714 417,678 389,636 364,587 339,538 321,484 310,427 L 230,25 C 229,20 226,15 223,12 220,8 215,5 208,2 201,-1 193,-3 182,-4 171,-5 157,-6 141,-6 124,-6 111,-5 101,-4 90,-3 82,-1 77,2 71,5 67,8 66,12 64,15 64,20 65,25 L 246,926 C 247,931 249,935 252,939 255,943 259,946 266,949 272,952 280,954 290,955 299,956 311,956 324,956 338,956 350,956 359,955 368,954 375,952 380,949 385,946 388,943 389,939 390,935 391,931 390,926 L 356,754 C 366,777 383,801 406,826 429,851 455,875 486,896 517,917 550,935 587,949 623,963 660,970 698,970 738,970 772,965 801,954 830,943 853,928 872,909 890,890 903,867 912,841 921,814 926,785 928,754 941,777 960,802 983,827 1006,852 1033,876 1064,897 1095,918 1128,935 1164,949 1200,963 1237,970 1274,970 1319,970 1356,964 1386,951 1416,938 1440,921 1459,899 1478,877 1491,851 1499,822 1507,793 1511,761 1511,726 1511,703 1510,680 1507,657 1504,634 1501,611 1496,587 L 1383,25 Z"
   horiz-adv-x="1456"
   unicode="m" />
   <glyph
   id="glyph45-2"
   d="M 1298,860 C 1298,809 1293,751 1284,688 1275,625 1259,560 1237,495 1215,430 1186,366 1150,305 1113,243 1068,188 1015,141 962,93 898,54 825,25 752,-4 668,-19 573,-19 497,-19 430,-9 373,10 316,29 268,57 230,95 191,132 162,179 143,234 124,289 114,353 114,426 114,483 119,545 129,611 139,677 156,743 179,809 202,874 232,937 269,998 306,1059 351,1113 405,1160 458,1207 521,1244 593,1272 665,1299 748,1313 841,1313 916,1313 983,1303 1040,1284 1097,1264 1144,1235 1183,1197 1221,1158 1250,1111 1269,1055 1288,998 1298,933 1298,860 Z M 1114,848 C 1114,895 1109,938 1098,977 1087,1016 1070,1049 1047,1077 1024,1105 993,1127 954,1143 915,1158 869,1166 814,1166 745,1166 684,1153 632,1128 579,1102 534,1068 496,1027 457,986 426,939 401,887 376,834 356,781 341,728 326,675 315,623 309,573 302,523 299,480 299,443 299,396 304,353 315,315 325,276 342,243 366,216 390,189 421,168 460,153 498,138 545,130 600,130 669,130 729,143 781,168 833,193 878,225 916,266 954,307 986,353 1011,405 1036,456 1057,509 1072,562 1087,615 1098,666 1105,716 1111,766 1114,810 1114,848 Z"
   horiz-adv-x="1191"
   unicode="O" />
   <glyph
   id="glyph47-2"
   d="M 1006,1260 C 1006,1256 1006,1251 1006,1244 1005,1237 1004,1230 1003,1222 1001,1213 999,1205 996,1196 993,1187 990,1179 986,1172 982,1165 977,1159 972,1155 967,1150 961,1148 954,1148 L 481,1148 393,708 841,708 C 849,708 855,705 859,700 862,694 864,686 864,676 864,671 864,665 863,658 862,651 861,643 860,636 858,628 856,620 853,611 850,602 847,595 843,588 839,581 834,576 829,572 824,567 818,565 811,565 L 364,565 256,26 C 255,21 253,16 250,12 246,8 241,5 234,3 227,0 217,-2 206,-3 195,-5 181,-6 164,-6 147,-6 134,-5 123,-3 112,-2 103,0 97,3 91,5 87,8 85,12 83,16 83,21 84,26 L 324,1224 C 329,1250 339,1268 355,1279 371,1289 387,1294 402,1294 L 983,1294 C 992,1294 999,1291 1002,1285 1005,1278 1006,1270 1006,1260 Z"
   horiz-adv-x="927"
   unicode="F" />
   <glyph
   id="glyph49-6"
   d="M 1145,1162 C 1145,1148 1143,1131 1138,1110 1133,1089 1127,1073 1120,1061 1112,1049 1104,1043 1095,1043 1086,1043 1075,1049 1062,1062 1049,1074 1032,1087 1011,1102 990,1116 962,1129 929,1142 895,1154 853,1160 802,1160 746,1160 695,1150 649,1129 603,1108 562,1079 525,1044 488,1008 455,967 427,920 399,873 376,825 358,774 339,723 325,671 316,619 307,567 302,518 302,471 302,418 309,370 322,329 335,287 355,252 380,223 405,194 436,173 473,158 510,143 551,136 598,136 650,136 695,142 733,154 770,165 803,178 830,193 857,207 879,220 897,232 915,243 930,249 941,249 948,249 954,246 957,241 960,236 962,228 962,217 962,214 962,209 961,203 960,196 958,189 957,182 956,175 954,167 953,158 951,149 949,141 946,134 943,126 941,119 938,113 935,106 930,100 923,93 916,86 901,77 879,64 856,51 829,38 797,27 764,15 728,5 688,-3 647,-12 604,-16 559,-16 491,-16 430,-6 375,15 320,35 274,65 236,105 197,144 168,194 147,253 126,312 115,379 115,456 115,519 122,585 135,652 148,719 168,784 194,847 220,910 253,970 292,1026 331,1082 376,1131 428,1174 479,1216 537,1249 602,1274 667,1298 738,1310 815,1310 864,1310 909,1305 952,1294 994,1283 1030,1269 1060,1252 1090,1235 1112,1221 1125,1208 1138,1195 1145,1179 1145,1162 Z"
   horiz-adv-x="1059"
   unicode="C" />
   <glyph
   id="glyph51-1"
   d="M 1060,61 C 1062,46 1063,35 1062,26 1061,17 1057,10 1051,5 1044,0 1034,-3 1021,-4 1008,-5 990,-6 967,-6 952,-6 940,-5 929,-4 918,-3 910,-2 905,1 899,3 895,6 892,10 889,14 888,19 887,25 L 839,340 300,340 131,28 C 128,21 124,16 120,12 115,7 109,4 102,1 94,-2 84,-3 72,-4 59,-5 44,-6 26,-6 6,-6 -10,-5 -22,-3 -34,-2 -42,1 -47,6 -52,11 -53,18 -51,27 -49,36 -44,47 -37,62 L 637,1264 C 642,1271 647,1277 652,1282 657,1287 664,1290 673,1293 682,1296 693,1298 706,1299 719,1300 736,1300 755,1300 777,1300 795,1300 809,1299 822,1298 833,1296 842,1293 850,1290 856,1287 859,1282 862,1277 865,1270 866,1263 L 1060,61 Z M 723,1122 L 722,1122 372,477 820,477 723,1122 Z"
   horiz-adv-x="1112"
   unicode="A" />
  </font><font
   vert-adv-y="90"
   vert-origin-y="90"
   vert-origin-x="45"
   horiz-origin-y="0"
   horiz-origin-x="0"
   horiz-adv-x="2048"
   id="EmbeddedFont_3-53">
   <font-face
   id="font-face56-7"
   descent="450"
   ascent="1402"
   font-style="normal"
   font-weight="normal"
   units-per-em="2048"
   font-family="OpenSymbol embedded" />
   <missing-glyph
   id="missing-glyph58-3"
   d="M 0,0 L 2047,0 2047,2047 0,2047 0,0 Z"
   horiz-adv-x="2048" />
   <glyph
   id="glyph60-1"
   d="M 221,293 L 221,420 1405,420 1405,293 221,293 Z M 221,791 L 221,920 1405,920 1405,791 221,791 Z"
   horiz-adv-x="1191"
   unicode="=" />
  </font><g
   id="g65-1"
   ooo:id-list="id3"
   ooo:slide="id1" /><g
   transform="matrix(4.8828125e-4,0,0,-4.8828125e-4,0,0)"
   id="bullet-char-template-57356-1">
   <path
   inkscape:connector-curvature="0"
   id="path69-7"
   d="M 580,1141 1163,571 580,0 -4,571 Z" />
  </g><g
   transform="matrix(4.8828125e-4,0,0,-4.8828125e-4,0,0)"
   id="bullet-char-template-57354-0">
   <path
   inkscape:connector-curvature="0"
   id="path72-4"
   d="M 8,1128 H 1137 V 0 H 8 Z" />
  </g><g
   transform="matrix(4.8828125e-4,0,0,-4.8828125e-4,0,0)"
   id="bullet-char-template-10146-1">
   <path
   inkscape:connector-curvature="0"
   id="path75-7"
   d="M 174,0 602,739 174,1481 1456,739 Z M 1358,739 309,1346 659,739 Z" />
  </g><g
   transform="matrix(4.8828125e-4,0,0,-4.8828125e-4,0,0)"
   id="bullet-char-template-10132-0">
   <path
   inkscape:connector-curvature="0"
   id="path78-6"
   d="M 2015,739 1276,0 H 717 l 543,543 H 174 v 393 h 1086 l -543,545 h 557 z" />
  </g><g
   transform="matrix(4.8828125e-4,0,0,-4.8828125e-4,0,0)"
   id="bullet-char-template-10007-4">
   <path
   inkscape:connector-curvature="0"
   id="path81-8"
   d="m 0,-2 c -7,16 -16,29 -25,39 l 381,530 c -94,256 -141,385 -141,387 0,25 13,38 40,38 9,0 21,-2 34,-5 21,4 42,12 65,25 l 27,-13 111,-251 280,301 64,-25 24,25 c 21,-10 41,-24 62,-43 C 886,937 835,863 770,784 769,783 710,716 594,584 L 774,223 c 0,-27 -21,-55 -63,-84 l 16,-20 C 717,90 699,76 672,76 641,76 570,178 457,381 L 164,-76 c -22,-34 -53,-51 -92,-51 -42,0 -63,17 -64,51 -7,9 -10,24 -10,44 0,9 1,19 2,30 z" />
  </g><g
   transform="matrix(4.8828125e-4,0,0,-4.8828125e-4,0,0)"
   id="bullet-char-template-10004-62">
   <path
   inkscape:connector-curvature="0"
   id="path84-8"
   d="M 285,-33 C 182,-33 111,30 74,156 52,228 41,333 41,471 c 0,78 14,145 41,201 34,71 87,106 158,106 53,0 88,-31 106,-94 l 23,-176 c 8,-64 28,-97 59,-98 l 735,706 c 11,11 33,17 66,17 42,0 63,-15 63,-46 V 965 c 0,-36 -10,-64 -30,-84 L 442,47 C 390,-6 338,-33 285,-33 Z" />
  </g><g
   transform="matrix(4.8828125e-4,0,0,-4.8828125e-4,0,0)"
   id="bullet-char-template-9679-8">
   <path
   inkscape:connector-curvature="0"
   id="path87-12"
   d="M 813,0 C 632,0 489,54 383,161 276,268 223,411 223,592 c 0,181 53,324 160,431 106,107 249,161 430,161 179,0 323,-54 432,-161 108,-107 162,-251 162,-431 0,-180 -54,-324 -162,-431 C 1136,54 992,0 813,0 Z" />
  </g><g
   transform="matrix(4.8828125e-4,0,0,-4.8828125e-4,0,0)"
   id="bullet-char-template-8226-0">
   <path
   inkscape:connector-curvature="0"
   id="path90-5"
   d="m 346,457 c -73,0 -137,26 -191,78 -54,51 -81,114 -81,188 0,73 27,136 81,188 54,52 118,78 191,78 73,0 134,-26 185,-79 51,-51 77,-114 77,-187 0,-75 -25,-137 -76,-188 -50,-52 -112,-78 -186,-78 z" />
  </g><g
   transform="matrix(4.8828125e-4,0,0,-4.8828125e-4,0,0)"
   id="bullet-char-template-8211-13">
   <path
   inkscape:connector-curvature="0"
   id="path93-7"
   d="M -4,459 H 1135 V 606 H -4 Z" />
  </g><g
   transform="matrix(4.8828125e-4,0,0,-4.8828125e-4,0,0)"
   id="bullet-char-template-61548-7">
   <path
   inkscape:connector-curvature="0"
   id="path96-8"
   d="m 173,740 c 0,163 58,303 173,419 116,115 255,173 419,173 163,0 302,-58 418,-173 116,-116 174,-256 174,-419 0,-163 -58,-303 -174,-418 C 1067,206 928,148 765,148 601,148 462,206 346,322 231,437 173,577 173,740 Z" />
  </g><clipPath
   id="clip_path_1-0"
   clipPathUnits="userSpaceOnUse">
          <path
   d="m 9472,14340 h 3413 v 979 H 9472 Z"
   id="path108-0"
   inkscape:connector-curvature="0" />
         </clipPath>
    
   
     
    
      
     </defs>
 <defs
   id="defs33">
  <font
   id="EmbeddedFont_1"
   horiz-adv-x="2048"
   horiz-origin-x="0"
   horiz-origin-y="0"
   vert-origin-x="45"
   vert-origin-y="90"
   vert-adv-y="90">
   <font-face
   font-family="Liberation Serif embedded"
   units-per-em="2048"
   font-weight="normal"
   font-style="normal"
   ascent="1535"
   descent="503"
   id="font-face10" />
   <missing-glyph
   horiz-adv-x="2048"
   d="M 0,0 L 2047,0 2047,2047 0,2047 0,0 Z"
   id="missing-glyph12" />
   <glyph
   unicode="t"
   horiz-adv-x="610"
   d="M 621,91 C 621,72 620,56 617,45 614,34 610,25 605,20 600,15 592,10 581,5 570,0 558,-3 545,-6 531,-9 516,-12 501,-14 486,-16 470,-17 455,-17 408,-17 368,-11 335,2 302,14 274,33 253,58 232,83 216,114 207,153 197,191 192,236 192,288 L 192,814 66,814 C 56,814 48,819 42,830 36,841 33,858 33,882 33,895 34,905 36,914 37,923 39,930 42,936 45,941 48,945 53,948 57,950 62,951 67,951 L 192,951 192,1165 C 192,1170 193,1174 196,1178 198,1182 202,1186 209,1189 215,1192 223,1194 234,1195 245,1196 258,1197 274,1197 291,1197 304,1196 315,1195 326,1194 334,1192 340,1189 346,1186 350,1182 353,1178 356,1174 357,1170 357,1165 L 357,951 588,951 C 593,951 598,950 602,948 606,945 610,941 613,936 616,930 618,923 619,914 620,905 621,895 621,882 621,858 618,841 612,830 606,819 598,814 588,814 L 357,814 357,312 C 357,250 366,203 385,172 403,140 436,124 483,124 498,124 512,126 524,129 536,132 547,135 556,138 565,141 573,145 580,148 587,151 593,152 598,152 601,152 605,151 608,150 611,148 613,145 615,140 616,135 618,129 619,121 620,113 621,103 621,91 Z"
   id="glyph14" />
   <glyph
   unicode="n"
   horiz-adv-x="795"
   d="M 928,25 C 928,20 927,15 924,12 921,8 917,5 911,2 905,-1 897,-3 886,-4 875,-5 862,-6 846,-6 829,-6 816,-5 805,-4 794,-3 786,-1 780,2 774,5 770,8 767,12 764,15 763,20 763,25 L 763,552 C 763,603 759,645 751,676 743,707 731,734 716,757 701,780 681,797 657,809 632,821 604,827 572,827 531,827 489,812 448,783 407,754 363,711 318,654 L 318,25 C 318,20 317,15 314,12 311,8 307,5 301,2 295,-1 287,-3 276,-4 265,-5 252,-6 235,-6 219,-6 206,-5 195,-4 184,-3 176,-1 170,2 163,5 159,8 157,12 154,15 153,20 153,25 L 153,925 C 153,930 154,935 156,939 158,942 162,946 168,949 174,952 182,954 191,955 200,956 213,956 228,956 243,956 255,956 265,955 274,954 282,952 287,949 292,946 296,942 299,939 301,935 302,930 302,925 L 302,806 C 353,863 403,904 454,931 504,957 555,970 606,970 666,970 717,960 758,940 799,919 832,892 857,858 882,824 901,784 912,739 923,693 928,638 928,574 L 928,25 Z"
   id="glyph16" />
   <glyph
   unicode="e"
   horiz-adv-x="848"
   d="M 921,514 C 921,488 914,470 901,459 888,448 873,442 857,442 L 264,442 C 264,392 269,347 279,307 289,267 306,233 329,204 353,175 383,153 421,138 458,123 504,115 558,115 601,115 639,119 673,126 706,133 735,140 760,149 784,158 804,166 820,173 836,180 848,183 856,183 861,183 865,182 868,180 872,177 875,174 877,169 879,164 880,158 881,150 882,141 883,131 883,119 883,110 883,103 882,97 881,90 881,85 880,80 879,75 877,70 875,66 872,62 869,58 866,55 862,51 851,45 833,37 815,28 792,20 763,12 734,4 701,-3 664,-9 626,-16 586,-19 543,-19 469,-19 404,-9 349,12 293,33 246,63 208,104 170,145 141,196 122,257 103,318 93,390 93,471 93,548 103,618 123,680 143,741 172,794 210,837 247,880 293,913 346,936 399,959 459,970 525,970 596,970 656,959 706,936 755,913 796,883 828,845 860,806 884,761 899,710 914,658 921,603 921,544 L 921,514 Z M 755,563 C 757,650 738,718 697,767 657,816 596,841 517,841 476,841 440,833 409,818 378,803 352,782 331,757 311,732 295,702 283,669 272,635 265,600 264,563 L 755,563 Z"
   id="glyph18" />
   <glyph
   unicode="U"
   horiz-adv-x="980"
   d="M 1145,478 C 1145,399 1134,329 1111,268 1088,206 1055,154 1012,111 969,68 917,36 856,14 795,-8 725,-19 647,-19 576,-19 511,-9 452,12 393,33 343,63 301,104 259,144 227,194 204,255 181,316 170,386 170,465 L 170,1268 C 170,1273 171,1278 174,1282 177,1286 181,1289 188,1292 195,1294 203,1296 214,1298 225,1299 239,1300 256,1300 272,1300 286,1299 297,1298 308,1296 317,1294 324,1292 330,1289 334,1286 337,1282 340,1278 341,1273 341,1268 L 341,486 C 341,426 348,374 363,329 378,284 399,247 427,218 454,188 488,166 527,151 566,136 609,128 658,128 708,128 753,135 792,150 831,165 864,187 891,216 918,245 938,282 953,325 967,368 974,419 974,477 L 974,1268 C 974,1273 975,1278 978,1282 981,1286 985,1289 992,1292 999,1294 1008,1296 1019,1298 1030,1299 1043,1300 1060,1300 1076,1300 1090,1299 1101,1298 1112,1296 1120,1294 1127,1292 1133,1289 1138,1286 1141,1282 1144,1278 1145,1273 1145,1268 L 1145,478 Z"
   id="glyph20" />
   <glyph
   unicode="S"
   horiz-adv-x="821"
   d="M 867,363 C 867,302 856,248 834,201 811,154 780,114 741,81 701,48 654,23 601,6 547,-11 489,-19 427,-19 384,-19 344,-15 307,-8 270,-1 237,8 208,19 179,30 154,41 135,52 115,63 101,73 94,81 86,89 80,99 77,112 73,124 71,140 71,161 71,176 72,188 73,198 74,207 76,215 79,221 82,227 85,231 89,234 93,236 98,237 103,237 112,237 126,231 143,220 160,209 181,196 208,183 235,170 267,157 305,146 342,134 386,128 435,128 472,128 507,133 538,143 569,153 595,167 618,186 640,204 657,226 669,253 681,280 687,310 687,344 687,381 679,412 662,438 645,464 623,487 596,507 569,526 538,544 503,561 468,577 432,594 395,611 358,628 323,646 288,667 253,688 222,712 195,740 168,768 146,801 129,839 112,876 103,921 103,974 103,1028 113,1076 133,1119 152,1161 180,1196 215,1225 250,1254 291,1276 340,1291 388,1306 440,1313 496,1313 525,1313 554,1311 583,1306 612,1301 639,1294 665,1286 690,1277 713,1268 733,1258 753,1247 766,1239 773,1233 779,1226 783,1221 785,1218 787,1214 789,1209 790,1204 791,1198 792,1191 793,1183 794,1175 794,1165 794,1152 794,1140 794,1129 793,1120 792,1111 790,1103 788,1097 786,1090 783,1086 780,1083 776,1080 772,1078 767,1078 760,1078 748,1083 733,1092 717,1101 698,1112 675,1124 652,1135 626,1146 595,1156 564,1165 529,1170 490,1170 454,1170 423,1165 396,1156 369,1146 347,1133 330,1117 313,1101 300,1082 291,1060 282,1038 278,1015 278,990 278,954 286,923 303,897 320,871 342,848 370,828 397,808 429,790 464,773 499,756 535,740 572,723 609,706 645,687 680,667 715,646 747,622 775,595 802,567 825,534 842,497 859,459 867,414 867,363 Z"
   id="glyph22" />
   <glyph
   unicode="P"
   horiz-adv-x="821"
   d="M 967,915 C 967,850 956,792 935,740 914,688 883,644 844,607 804,570 755,542 698,522 640,502 571,492 491,492 L 344,492 344,26 C 344,21 343,16 340,12 337,8 332,5 326,3 319,0 311,-2 300,-3 289,-5 275,-6 258,-6 241,-6 228,-5 217,-3 206,-2 197,0 190,3 183,5 179,8 176,12 173,16 172,21 172,26 L 172,1220 C 172,1247 179,1266 193,1277 207,1288 223,1294 240,1294 L 517,1294 C 545,1294 572,1293 598,1291 623,1288 654,1283 689,1276 724,1268 759,1254 796,1233 832,1212 863,1186 888,1155 913,1124 933,1089 947,1049 960,1008 967,964 967,915 Z M 786,901 C 786,954 776,998 757,1033 737,1068 713,1095 684,1112 655,1129 625,1140 594,1145 563,1150 532,1152 503,1152 L 344,1152 344,633 499,633 C 551,633 594,640 629,653 663,666 692,685 715,709 738,732 756,761 768,794 780,827 786,862 786,901 Z"
   id="glyph24" />
   <glyph
   unicode="1"
   horiz-adv-x="768"
   d="M 927,68 C 927,55 926,45 924,36 922,27 919,20 916,15 913,10 909,6 905,4 900,1 896,0 891,0 L 215,0 C 210,0 206,1 202,4 198,6 194,10 191,15 187,20 184,27 182,36 180,45 179,55 179,68 179,80 180,90 182,99 184,108 187,115 190,121 193,126 196,131 201,134 205,137 210,138 215,138 L 485,138 485,1122 235,973 C 222,966 212,962 205,961 197,960 191,961 186,966 181,970 178,977 177,987 175,997 174,1010 174,1025 174,1036 175,1046 176,1054 177,1062 178,1069 180,1074 182,1079 185,1084 189,1088 192,1092 197,1096 203,1100 L 501,1291 C 504,1293 507,1295 511,1296 515,1297 520,1299 526,1300 532,1301 539,1302 547,1303 555,1303 565,1303 577,1303 593,1303 606,1302 617,1301 628,1300 636,1298 642,1296 648,1293 652,1290 654,1287 656,1283 657,1279 657,1275 L 657,138 891,138 C 896,138 901,137 906,134 911,131 915,126 918,121 921,115 923,108 925,99 926,90 927,80 927,68 Z"
   id="glyph26" />
   <glyph
   unicode=","
   horiz-adv-x="345"
   d="M 371,143 C 371,122 370,103 368,86 366,69 363,52 358,37 353,22 347,7 340,-8 332,-23 322,-39 311,-56 L 174,-262 C 171,-267 167,-271 163,-274 158,-277 153,-280 147,-283 140,-286 133,-287 125,-288 116,-289 106,-290 93,-290 82,-290 72,-289 65,-288 57,-287 51,-286 48,-283 45,-281 43,-278 43,-274 42,-270 43,-265 46,-260 L 179,15 179,143 C 179,161 181,175 185,186 188,197 194,205 202,210 210,215 220,219 232,221 244,223 259,224 276,224 293,224 307,223 319,221 331,219 341,215 349,210 356,205 362,197 366,186 369,175 371,161 371,143 Z"
   id="glyph28" />
   <glyph
   unicode=" "
   horiz-adv-x="450"
   id="glyph30" />
  </font>
 </defs>
 <defs
   id="defs52">
  <font
   id="EmbeddedFont_2"
   horiz-adv-x="2048"
   horiz-origin-x="0"
   horiz-origin-y="0"
   vert-origin-x="45"
   vert-origin-y="90"
   vert-adv-y="90">
   <font-face
   font-family="Liberation Serif embedded"
   units-per-em="2048"
   font-weight="normal"
   font-style="italic"
   ascent="1535"
   descent="503"
   id="font-face35" />
   <missing-glyph
   horiz-adv-x="2048"
   d="M 0,0 L 2047,0 2047,2047 0,2047 0,0 Z"
   id="missing-glyph37" />
   <glyph
   unicode="q"
   horiz-adv-x="927"
   d="M 741,-332 C 740,-337 737,-342 734,-346 731,-350 726,-353 719,-356 712,-359 704,-361 693,-362 682,-363 668,-364 651,-364 636,-364 623,-363 613,-362 602,-361 594,-359 589,-356 583,-353 579,-350 577,-346 575,-342 574,-337 575,-332 L 641,-7 C 644,10 648,28 653,46 658,64 663,82 668,100 673,117 677,134 682,150 687,166 691,180 696,192 685,169 668,146 645,121 622,96 595,73 564,52 533,31 500,14 463,1 426,-12 389,-19 351,-19 304,-19 263,-11 229,4 194,19 166,41 145,70 123,99 107,133 97,173 86,212 81,256 81,305 81,342 85,384 92,432 99,479 110,528 126,577 141,626 161,674 186,721 211,768 241,810 276,847 311,884 352,913 399,936 446,959 499,970 559,970 618,970 669,958 712,934 754,910 792,877 825,835 L 844,926 C 847,937 854,945 867,950 880,955 899,957 926,957 939,957 951,956 960,955 969,954 976,952 981,949 986,946 990,943 991,939 992,935 993,931 992,926 L 741,-332 Z M 781,690 C 750,736 716,771 680,794 643,817 602,828 557,828 520,828 486,819 457,802 427,784 401,760 379,731 356,702 337,669 321,632 305,595 292,558 282,520 272,482 265,445 261,410 256,375 254,344 254,318 254,252 266,203 290,171 313,138 348,122 393,122 430,122 467,132 504,153 541,173 575,201 607,237 639,273 667,316 692,365 717,414 735,467 747,525 L 781,690 Z"
   id="glyph39" />
   <glyph
   unicode="m"
   horiz-adv-x="1456"
   d="M 1383,25 C 1382,20 1380,15 1377,12 1374,8 1369,5 1362,2 1355,-1 1346,-3 1335,-4 1324,-5 1310,-6 1294,-6 1278,-6 1265,-5 1255,-4 1244,-3 1236,-1 1231,2 1225,5 1221,8 1219,12 1217,15 1217,20 1218,25 L 1329,581 C 1332,600 1335,619 1338,636 1340,653 1341,671 1341,688 1341,731 1333,765 1317,790 1300,815 1272,828 1231,828 1198,828 1163,818 1128,798 1092,777 1058,749 1026,714 994,678 966,636 941,587 916,538 898,484 887,427 L 807,25 C 806,20 803,15 800,12 797,8 792,5 785,2 778,-1 769,-3 758,-4 747,-5 733,-6 717,-6 701,-6 688,-5 678,-4 667,-3 659,-1 654,2 649,5 645,8 643,12 641,15 640,20 641,25 L 752,581 C 757,601 760,621 762,640 763,659 764,677 764,694 764,735 756,767 739,792 722,816 694,828 654,828 620,828 585,818 550,798 515,777 481,749 449,714 417,678 389,636 364,587 339,538 321,484 310,427 L 230,25 C 229,20 226,15 223,12 220,8 215,5 208,2 201,-1 193,-3 182,-4 171,-5 157,-6 141,-6 124,-6 111,-5 101,-4 90,-3 82,-1 77,2 71,5 67,8 66,12 64,15 64,20 65,25 L 246,926 C 247,931 249,935 252,939 255,943 259,946 266,949 272,952 280,954 290,955 299,956 311,956 324,956 338,956 350,956 359,955 368,954 375,952 380,949 385,946 388,943 389,939 390,935 391,931 390,926 L 356,754 C 366,777 383,801 406,826 429,851 455,875 486,896 517,917 550,935 587,949 623,963 660,970 698,970 738,970 772,965 801,954 830,943 853,928 872,909 890,890 903,867 912,841 921,814 926,785 928,754 941,777 960,802 983,827 1006,852 1033,876 1064,897 1095,918 1128,935 1164,949 1200,963 1237,970 1274,970 1319,970 1356,964 1386,951 1416,938 1440,921 1459,899 1478,877 1491,851 1499,822 1507,793 1511,761 1511,726 1511,703 1510,680 1507,657 1504,634 1501,611 1496,587 L 1383,25 Z"
   id="glyph41" />
   <glyph
   unicode="T"
   horiz-adv-x="980"
   d="M 1139,1259 C 1139,1255 1139,1250 1139,1243 1138,1236 1137,1228 1136,1220 1134,1212 1132,1204 1129,1195 1126,1186 1123,1178 1119,1171 1115,1164 1110,1159 1105,1155 1099,1150 1093,1148 1086,1148 L 722,1148 497,26 C 496,21 493,16 490,12 486,8 481,5 474,3 467,0 457,-2 446,-3 435,-5 421,-6 404,-6 387,-6 374,-5 363,-3 352,-2 344,0 338,3 332,5 328,8 326,12 324,16 324,21 325,26 L 549,1148 187,1148 C 178,1148 171,1151 168,1157 165,1163 163,1171 163,1182 163,1187 164,1193 165,1200 166,1207 167,1214 169,1223 170,1232 172,1240 175,1248 178,1256 181,1264 185,1271 189,1278 194,1283 199,1288 204,1292 209,1294 216,1294 L 1116,1294 C 1125,1294 1131,1291 1134,1285 1137,1278 1139,1270 1139,1259 Z"
   id="glyph43" />
   <glyph
   unicode="R"
   horiz-adv-x="980"
   d="M 1062,1023 C 1062,977 1056,933 1043,892 1030,851 1010,813 984,778 957,743 924,713 885,686 845,659 799,637 746,620 781,607 810,581 832,540 854,499 871,446 883,379 L 936,93 C 938,80 940,69 942,58 943,47 944,37 944,28 944,22 942,17 939,13 936,8 930,5 923,2 916,-1 906,-3 893,-4 880,-5 864,-6 845,-6 828,-6 814,-5 803,-4 792,-3 784,0 779,3 773,6 769,11 767,16 764,21 762,27 761,36 L 710,340 C 705,375 697,407 688,436 678,465 664,490 647,511 630,532 608,548 581,560 554,571 521,577 482,577 L 367,577 256,25 C 255,20 252,16 249,12 246,8 240,5 233,3 226,0 216,-2 205,-3 194,-5 180,-6 163,-6 148,-6 135,-5 124,-4 113,-3 104,-1 98,2 92,4 88,7 86,11 83,15 83,20 84,25 L 324,1224 C 329,1250 340,1268 356,1279 372,1289 390,1294 409,1294 L 690,1294 C 751,1294 805,1288 852,1276 898,1264 937,1247 968,1224 999,1201 1023,1172 1039,1139 1054,1105 1062,1066 1062,1023 Z M 876,996 C 876,1019 872,1040 864,1059 856,1078 844,1095 827,1109 810,1123 787,1134 760,1141 732,1148 699,1152 661,1152 L 482,1152 394,716 546,716 C 605,716 656,724 698,740 739,756 773,777 800,804 826,830 845,860 858,893 870,926 876,961 876,996 Z"
   id="glyph45" />
   <glyph
   unicode="E"
   horiz-adv-x="980"
   d="M 1038,1261 C 1038,1258 1038,1253 1038,1246 1037,1239 1036,1231 1035,1223 1033,1215 1031,1207 1029,1198 1026,1189 1023,1182 1019,1175 1015,1168 1010,1162 1005,1158 999,1153 993,1151 986,1151 L 481,1151 399,745 834,745 C 842,745 848,742 852,737 856,732 858,724 858,713 858,710 858,705 857,698 856,691 854,683 853,675 852,666 850,658 847,650 844,642 841,635 838,629 834,622 829,617 824,613 819,608 813,606 806,606 L 372,606 278,143 793,143 C 800,143 805,140 810,135 814,130 816,121 816,110 816,106 816,100 815,93 814,86 813,78 812,70 810,62 808,54 806,46 803,37 800,30 796,23 792,16 787,10 782,6 776,2 770,0 763,0 L 141,0 C 134,0 127,1 120,4 113,6 107,10 102,16 97,21 93,29 91,38 89,47 90,57 93,70 L 324,1224 C 329,1250 339,1268 355,1279 371,1289 387,1294 402,1294 L 1015,1294 C 1030,1294 1038,1283 1038,1261 Z"
   id="glyph47" />
   <glyph
   unicode="A"
   horiz-adv-x="1112"
   d="M 1060,61 C 1062,46 1063,35 1062,26 1061,17 1057,10 1051,5 1044,0 1034,-3 1021,-4 1008,-5 990,-6 967,-6 952,-6 940,-5 929,-4 918,-3 910,-2 905,1 899,3 895,6 892,10 889,14 888,19 887,25 L 839,340 300,340 131,28 C 128,21 124,16 120,12 115,7 109,4 102,1 94,-2 84,-3 72,-4 59,-5 44,-6 26,-6 6,-6 -10,-5 -22,-3 -34,-2 -42,1 -47,6 -52,11 -53,18 -51,27 -49,36 -44,47 -37,62 L 637,1264 C 642,1271 647,1277 652,1282 657,1287 664,1290 673,1293 682,1296 693,1298 706,1299 719,1300 736,1300 755,1300 777,1300 795,1300 809,1299 822,1298 833,1296 842,1293 850,1290 856,1287 859,1282 862,1277 865,1270 866,1263 L 1060,61 Z M 723,1122 L 722,1122 372,477 820,477 723,1122 Z"
   id="glyph49" />
  </font>
 </defs>
 <defs
   id="defs63">
  <font
   id="EmbeddedFont_3"
   horiz-adv-x="2048"
   horiz-origin-x="0"
   horiz-origin-y="0"
   vert-origin-x="45"
   vert-origin-y="90"
   vert-adv-y="90">
   <font-face
   font-family="OpenSymbol embedded"
   units-per-em="2048"
   font-weight="normal"
   font-style="normal"
   ascent="1402"
   descent="450"
   id="font-face54" />
   <missing-glyph
   horiz-adv-x="2048"
   d="M 0,0 L 2047,0 2047,2047 0,2047 0,0 Z"
   id="missing-glyph56" />
   <glyph
   unicode="−"
   horiz-adv-x="1191"
   d="M 221,543 L 221,641 1405,641 1405,543 221,543 Z"
   id="glyph58" />
   <glyph
   unicode="="
   horiz-adv-x="1191"
   d="M 221,293 L 221,420 1405,420 1405,293 221,293 Z M 221,791 L 221,920 1405,920 1405,791 221,791 Z"
   id="glyph60" />
  </font>
</defs>
</svg>
